先锋论坛

 找回密码
 注册
楼主: 先锋男儿

影音先锋9.9.98 P2P云3D版发布,意见收集中!!!

[复制链接]
发表于 2011-12-20 18:29:10 | 显示全部楼层
我们会根据自身的实际情况,会考虑是否加入你提到的功能。
发表于 2011-12-31 17:28:04 | 显示全部楼层
不知,我提的问题什么时候能够解决好呀?

要是不清楚我提的问题,我现重新说一下,我电脑是WIN7系统的。

就以我电脑的达芬奇密码(蓝光).mp4 这个文件来做测试。实际播放长度为02:53:29(也就是2小时53分29秒)影音先锋打开这个视频文件,显示播放长度为:228:26:02
视频信息

   编码格式:avc1     标准帧率:24.000
   当前帧率:0.31         当前帧:24
         码率:1.192M


然后再用realplayer打开这个视频文件,文显示播放时间正常为02:53:29

realplayer显示的文件属性:
N:\达芬奇密码(蓝光).mp4
  General
    Complete name : N:\达芬奇密码(蓝光).mp4
    Format : MPEG-4
    Format profile : Base Media
    Codec ID : isom
    File size : 1.54 GiB
    Duration : 2h 53mn
    Overall bit rate : 1 275 Kbps
    Encoded date : UTC 2010-05-21 23:47:34
    Tagged date : UTC 2010-05-21 23:47:34
  Video #1
    ID : 1
    Format : AVC
    Format/Info : Advanced Video Codec
    Format profile : High@L2.1
    Format settings, CABAC : Yes
    Format settings, ReFrames : 2 frames
    Codec ID : avc1
    Codec ID/Info : Advanced Video Coding
    Duration : 2h 53mn
    Bit rate mode : Variable
    Bit rate : 1 200 Kbps
    Width : 1 280 pixels
    Height : 720 pixels
    Display aspect ratio : 16:9
    Frame rate mode : Constant
    Frame rate : 24.000 fps
    Color space : YUV
    Chroma subsampling : 4:2:0
    Bit depth : 8 bits
    Scan type : Progressive
    Bits/(Pixel*Frame) : 0.054
    Stream size : 1.44 GiB (94%)
    Writing library : x264 core 80 r1373 4322f63
    Encoding settings : cabac=1 / ref=2 / deblock=1:0:0 / analyse=0x3:0x113 / me=hex / subme=6 / psy=1 / psy_rd=0.0:0.0 / mixed_ref=1 / me_range=16 / chroma_me=1 / trellis=1 / 8x8dct=1 / cqm=0 / deadzone=21,11 / fast_pskip=1 / chroma_qp_offset=0 / threads=12 / sliced_threads=0 / nr=0 / decimate=1 / mbaff=0 / constrained_intra=0 / bframes=2 / b_pyramid=0 / b_adapt=1 / b_bias=0 / direct=3 / wpredb=1 / wpredp=2 / keyint=250 / keyint_min=25 / scenecut=40 / rc=abr / mbtree=0 / bitrate=1200 / ratetol=1.0 / qcomp=0.60 / qpmin=10 / qpmax=51 / qpstep=4 / ip_ratio=1.40 / pb_ratio=1.30 / aq=1:1.00
    Tagged date : UTC 2010-05-21 23:51:05
  Audio #2
    ID : 2
    Format : AAC
    Format/Info : Advanced Audio Codec
    Format profile : LC
    Codec ID : 40
    Duration : 2h 53mn
    Bit rate mode : Variable
    Bit rate : 79.3 Kbps
    Channel(s) : 2 channels
    Channel positions : Front: L R
    Sampling rate : 44.1 KHz
    Compression mode : Lossy
    Stream size : 98.4 MiB (6%)
    Tagged date : UTC 2010-05-21 23:51:05
发表于 2011-12-31 17:33:13 | 显示全部楼层
以前暴风影音,现在的QQ影音播放此视频文件时,都是出现和影音先锋一样的情况。只是现在暴风影音5播放此类视频文件时,已无这样的现象,播放时长和实际时长完美符合,从而也说明此类视频国产播放器也是可以完美兼容的。
发表于 2012-1-15 20:41:43 | 显示全部楼层
乘着新版还没有出来,再提点意见。

这两天密集试用 wmp+win7codecs, 不能不说wmp是一款非常优秀的播放软件,其画面色彩还原、音效,都是目前见过最优的。wmp这么好的软件被当成了摆设,主要是微软的无作为。wmp播放多数视频不得不依赖外部解码器,而解码器设置是一个令人头疼的问题。

wmp+win7codecs的主要问题是:一是默认设置播放TS格式等文件无声音,需要特殊设置;二是字幕设置非常棘手,跟国产软件完全不是一个样。

希望影音先锋能借鉴wmp的优点,例如外观等等,同时兼容各种解码器,使软件能输出更为优质的画面和声音。

期待新版的发布!
发表于 2012-1-15 20:51:46 | 显示全部楼层
个人而言,对不错的电影,都会选择remux收藏,可惜电脑还是多年前配置,CPU是AMD5000+, 主板集成显卡780G。

这样的配置使用影音先锋播放remux基本没有成功过,声音不同步,字幕无法加载等等,wmp+win7codecs能播放多数的remux,但是字幕无法加载,虽然经过设置修改可以加载字幕,但软件播放又出问题。

目前唯一说得过去的只有终极解码。但是终极解码画面并不出彩,大量的设置也是令人头疼。

期待先锋能有一个神作,提供傻瓜式的设置和wmp的画面和音效。

小黑屋|手机版|Archiver|零与壹软件 ( 桂ICP备14004305号 桂公网安备 45030502000091号 )

返回顶部
x

影音先锋资讯

GMT+8, 2017-9-26 17:19

Powered by Discuz! X3.2

© 2001-2013 Comsenz Inc.

快速回复 返回顶部 返回列表