先锋论坛

 找回密码
 注册
楼主: 先锋男儿

影音先锋9.9.995 P2P云3D版发布,意见收集中!!!

[复制链接]
发表于 2012-1-18 13:16:24 | 显示全部楼层
希望影音先锋后期支持FTP和PT资源播放,在线智能字幕匹配、基于先锋链接协议的资源网站。
发表于 2012-1-28 09:15:05 | 显示全部楼层
回复 1# 先锋男儿

ogg格式无法播放,具体媒体信息如下:
  
    Complete name : G:\movie\567.ogg
    Format : OGG
    File size : 599 MiB
    Duration : 54mn 24s
    Overall bit rate : 1 538 Kbps
  Video #0
    ID : 0 (0x0)
    Format : MPEG-4 Visual
    Format profile : Advanced Simple@L5
    Format settings, BVOP : 5
    Format settings, QPel : No
    Format settings, GMC : No warppoints
    Format settings, Matrix : Default (H.263)
    Muxing mode : Packed bitstream
    Codec ID : XVID
    Codec ID/Hint : XviD
    Duration : 54mn 24s
    Bit rate : 1 423 Kbps
    Width : 720 pixels
    Height : 540 pixels
    Display aspect ratio : 4:3
    Frame rate : 29.970 fps
    Original frame rate : 29.970 fps
    Color space : YUV
    Chroma subsampling : 4:2:0
    Bit depth : 8 bits
    Scan type : Progressive
    Compression mode : Lossy
    Bits/(Pixel*Frame) : 0.122
    Stream size : 554 MiB (93%)
    Writing library : XviD 1.2.0SMP (UTC 2006-01-08)
  Audio #1
    ID : 1 (0x1)
    Format : Vorbis
    Format settings, Floor : 1
    Duration : 54mn 24s
    Bit rate mode : Constant
    Bit rate : 45.0 Kbps
    Minimum bit rate : 45.0 Kbps
    Channel(s) : 2 channels
    Sampling rate : 48.0 KHz
    Compression mode : Lossy
    Stream size : 17.5 MiB (3%)
    Writing library : libVorbis 1.0 (UTC 2002-07-17)
发表于 2012-1-28 22:21:18 | 显示全部楼层
是所有这样的文件都无法播放,还是个别文件? 使用 最新版本的“影音先锋” 也无法播放?
提供一下该影片的下载地址,或者 发送一个这样的文件到我们的 邮箱: cmdll@163.com  我们测试一下才能更好的解决!
发表于 2012-2-21 21:15:46 | 显示全部楼层
先锋的性能足够秒杀绝大多数国产播放器了,但跟国外的一些播放器比还是有较大差距。期待先锋以秒杀VLC1.1.11为目标,推出一个注重性能的本地版本。
在此祝先锋越做越好,打造最强的国产播放器。
发表于 2012-4-20 21:20:07 | 显示全部楼层
影音先锋6.8.0里的网络设置中,P2P网络(启用全球DHT定位查询;启用局域网快速查询),既然是可选项,为什么不能取消。我想把勾取消掉,试了好几次都不行。是不是bug?

小黑屋|手机版|Archiver|零与壹软件 ( 桂ICP备14004305号 桂公网安备 45030502000091号 )

返回顶部
x

影音先锋资讯

GMT+8, 2019-3-23 05:03

Powered by Discuz! X3.2

© 2001-2013 Comsenz Inc.

快速回复 返回顶部 返回列表